#TITLE:Gaussian Blur 2;
#SUBTITLE:;
#ARTIST:Kil;
#TITLETRANSLIT:;
#SUBTITLETRANSLIT:;
#ARTISTTRANSLIT:;
#CREDIT:;
#BANNER:gaussianbanner.png;
#BACKGROUND:gaussianblurv2-bg.png;
#LYRICSPATH:;
#CDTITLE:pepr-cd.png;
#MUSIC:gb2.ogg;
#OFFSET:-0.033;
#SAMPLESTART:70.000;
#SAMPLELENGTH:12.000;
#SELECTABLE:YES;
#BPMS:0.000=140.000,52.000=135.000,53.000=140.000,54.000=145.000,55.000=150.000,57.000=155.000,58.000=160.000,59.000=165.000,61.000=170.000,62.000=175.000,63.000=180.000,64.000=185.000,65.000=191.000,66.000=197.000,67.000=204.000,68.000=213.000,292.000=215.000,308.000=217.000,312.000=219.000,316.000=220.000,320.000=221.000;
#STOPS:;
#BGCHANGES:;
// cache tags:
#FIRSTBEAT:0.000;
#LASTBEAT:339.500;
#SONGFILENAME:Songs/nhac/Hayden Vs Pepr - Gaussian Blur 2/gb2.sm;
#HASMUSIC:1;
#HASBANNER:1;
#MUSICLENGTH:116.448;
// end cache tags

//---------------dance-single - Copied from----------------
#NOTES:
     dance-single:
     Copied from:
     Hard:
     10:
     1.000,1.000,0.464,0.120,1.000,824.000,54.000,14.000,0.000,0.000:



1000
0010
0100
0000
0001
0010
0100
0000
,
1000
0000
0010
0000
0100
0000
0001
0000
0010
0000
0000
0000
0000
0000
1000
0010
,
1000
0100
0010
0001
0110
1000
0100
0010
,
1001
0100
0010
0100
0011
0100
1000
0100
,
1010
0001
0010
0100
1001
0100
0010
0001
,
0110
1000
0010
0100
0011
0100
1001
0100
,
2010
0000
0000
0000
3000
0000
1000
0100
,
0010
0020
0230
2300
,
3020
0000
0030
0000
0000
0000
0001
0010
,
0100
1000
0100
0010
1001
0010
1000
0010
,
0001
1000
0100
0010
0101
1000
0100
0001
,
0200
0000
0301
0010
,
2000
0000
3010
2000
,
3001
0100
0010
1000
0100
0010
0001
1000
0100
0010
0001
0010
0100
0010
0001
0010
,
0100
1000
0010
0100
0001
0010
0100
1000
0010
0100
0010
1000
0100
0010
0001
0100
,
0010
1000
0010
0100
0001
0100
0010
1000
0100
0010
0001
1000
0001
0010
0100
1000
,
0100
0010
0100
1000
0010
0100
0001
0010
0100
1000
0100
0010
0001
1000
0100
0010
,
0001
0000
0010
0000
0100
0000
1000
0000
0010
1000
0010
0000
0100
0000
0010
0000
,
0001
0000
0010
0000
0100
0000
1000
0000
0001
0010
0001
0000
0001
0000
0100
0000
,
0010
0000
1000
0000
0100
0000
0010
0000
1000
0001
1000
0000
0010
0000
0100
0000
,
1001
0000
0000
1000
0100
0000
0100
0010
0000
1000
0100
0010
0001
0010
0100
1000
,
0200
0000
0000
0000
0300
0000
1000
0010
,
0100
1001
0011
1010
,
1001
0000
0000
0000
0000
0000
1000
0010
,
0100
0010
0001
0010
1001
0100
0010
0001
,
0010
1000
0010
0100
1010
0100
0001
0100
,
0010
0100
1000
0100
0011
0000
0100
0010
,
1001
0010
0101
1001
0010
1000
0101
0010
,
1001
0100
1010
1001
0010
0001
1010
0100
,
1001
0100
1001
0101
0010
1000
0101
0010
,
1001
0100
1010
1001
0010
0100
1010
0000
,
1000
0010
0100
0001
0100
0010
0100
0001
0100
0010
1000
0100
0010
0001
1000
0001
,
0010
0100
1000
0010
0100
0001
0010
0100
1000
0010
0100
0010
1000
0100
0010
0001
,
1000
0001
0100
0010
1000
0010
0100
0001
0010
0100
1000
0100
1000
0100
0010
0001
,
0100
0010
1000
0010
0100
0001
0010
0100
1000
0001
0010
0100
1000
0001
1000
0100
,
0010
0001
0100
0010
1000
0100
0010
0001
0010
0001
0100
0001
0010
0100
1000
0010
,
0100
0010
1000
0100
0010
0001
0100
0010
1000
0001
0100
0010
1000
0001
0100
0010
,
1000
0010
0100
0001
1000
0010
0100
0001
0100
0010
1000
0010
0100
0001
0100
0010
,
0100
0010
1000
0001
0100
0010
1000
0100
0010
0001
0010
0100
1000
0010
0100
0001
,
0010
0001
1000
0001
1010
0100
0010
1000
,
0010
0100
0010
0000
1000
0000
0001
0000
1000
0100
1000
0000
0010
0000
0100
0000
,
1001
0010
1000
0010
1100
0001
1000
0010
,
1000
0010
1000
0000
0010
0000
0100
0000
0001
0100
0001
0000
0010
0000
1000
0000
,
0101
0010
0100
1000
0110
1000
0010
0100
,
1001
1000
1100
0100
0110
0010
0011
1000
,
0001
1000
0010
0000
1000
0000
0001
0000
1000
0010
0100
0000
0001
0000
0010
0000
,
1000
0100
0010
0000
0001
0000
0010
0000
1001
0000
0010
0000
1000
0001
1000
0010
,
1000
0001
1000
0000
0001
0000
0010
0000
1000
0100
1000
0000
0100
0000
0010
0000
,
0001
0100
0001
0000
0010
0000
1000
0000
0101
0000
0010
0000
1001
0000
0100
0000
,
0011
0100
0001
0010
0100
1000
0101
1000
,
0100
0010
0001
0100
1001
0010
1001
0100
,
0010
0001
0100
0010
1000
0001
0100
0010
,
1000
0100
0010
0001
0010
0000
0000
0000
,
1020
0000
0000
0030
,
2100
0000
0000
3000
,
0102
0000
0100
0000
,
1000
0000
0003
0000
,
1000
0010
0100
0001
0100
0010
0100
0001
0100
0010
1000
0100
0010
0001
1000
0001
,
0010
0100
1000
0010
0100
0001
0010
0100
1000
0010
0100
0010
1000
0100
0010
0001
,
1000
0001
0100
0010
1000
0010
0100
0001
0010
0100
1000
0100
1000
0100
0010
0001
,
0100
0010
1000
0010
0100
0001
0010
0100
1000
0001
0010
0100
1000
0001
1000
0100
,
0010
0000
0000
0000
1000
0010
0100
0001
0010
0100
1000
0010
0100
0010
1000
0001
,
0100
0000
0000
0000
0001
0100
0010
1000
0010
0100
0001
1000
0001
0100
0010
1000
,
0100
0000
0000
0000
1000
0001
0100
0010
1000
0010
0100
0001
0100
0010
0100
0001
,
0010
0000
0000
0000
1000
0100
0010
0001
1000
0001
0010
0100
1000
0001
0010
0100
,
1000
0000
0000
0000
0001
0100
0010
1000
0001
0010
0100
1000
0010
0100
0001
0010
,
0100
0000
0000
0000
1000
0100
0010
0001
0010
0100
1000
0010
0100
0001
0100
0010
,
1000
0000
0000
0000
0001
0010
0100
1000
0001
1000
0100
0010
0001
0100
0010
1000
,
0001
0000
0000
0000
1000
0001
0100
0010
1000
0100
0010
0001
0100
0010
0100
0001
,
0010
1000
0010
0000
0001
0100
0001
0000
,
1000
0000
0001
0000
1000
0000
0000
0000
0010
0000
0100
0000
0010
0000
1000
0010
,
0100
1000
0010
0000
0001
0010
0001
0000
,
0100
0001
0010
0100
1000
0010
0100
0001
,
1000
0100
0010
0001
1000
0001
0010
0100
1000
0010
0100
0001
0100
0010
1000
0001
,
0100
0010
0100
0001
0100
0010
1000
0010
0100
0001
0010
0100
1000
0010
0100
0001
,
0010
0100
1000
0100
0010
0001
0100
0010
0100
0001
0010
0100
1000
0010
0100
0001
,
0100
0010
1000
0100
0010
0100
1000
0100
0010
0001
0010
0001
0010
0100
0010
0100
,
1000
0001
0100
0010
1000
0010
0100
0001
0010
0100
1000
0100
0010
0001
0010
0100
,
0010
0001
1000
0001
0010
0100
1000
0001
0100
0010
1000
0100
0010
0001
0100
0010
,
1000
0100
0010
0001
0010
0100
1000
0010
0100
0010
1000
0100
0010
0001
0100
0010
,
1000
0100
0010
0100
1000
0100
0010
0001
0010
0100
1000
0010
0100
0001
1000
0010
,
0200
0000
0000
0000
,
0000
0000
0000
0000
,
0320
0000
0000
0000
,
0000
0000
0030
0000
;

//---------------dance-single - Blank----------------
#NOTES:
     dance-single:
     Blank:
     Challenge:
     12:
     1.000,1.000,0.747,0.275,1.000,874.000,87.000,32.000,0.000,5.000:
1000
1000
1000
0000
0010
0010
0010
0000
,
0100
0000
1000
0000
0100
0000
1000
0000
0200
0000
0000
0000
0300
0000
1000
0100
,
1000
0100
0010
0001
0110
0010
1000
0100
,
1001
0100
0010
0001
1010
0100
1000
0010
,
0101
1000
0010
0100
0110
1000
0100
0010
,
1001
0100
0010
0100
0110
0001
1010
0100
,
2002
0000
3003
0000
0000
0000
1000
0100
,
1000
0100
0100
0100
,
0200
0000
0000
0300
1000
0100
0010
0001
,
1100
0001
0010
0100
1100
0010
0100
1000
,
0101
1000
0100
0010
0110
0001
0010
0100
,
2000
0000
0000
3000
1000
0000
0110
0000
,
0002
0000
0000
0000
0103
0000
2222
3333
,
1000
0100
0010
0001
0010
0100
1000
0100
0010
0001
0010
0100
1000
0100
0010
0001
,
0010
0100
1000
0100
1000
0100
1000
0100
0010
0100
0010
0100
0010
0100
0010
0001
,
0010
0001
0010
0001
0010
0100
0010
0100
1000
0100
1000
0100
0010
0100
0010
0001
,
0010
0001
0010
0100
0010
0100
1000
0100
0010
0001
0100
0010
1000
0100
0010
0100
,
0010
0000
1000
0000
0100
0000
0010
0000
0100
0010
0001
0010
0100
0000
0100
0000
,
1000
0000
0100
0000
1000
0000
0100
0000
1000
0001
0010
0001
0100
0000
1000
0000
,
0100
0000
0010
0000
0100
0000
1000
0000
0100
0010
0100
0000
1000
0000
1000
0000
,
1000
0100
0000
0100
0010
0001
0000
0001
0010
0100
0000
0100
0010
0001
0010
0100
,
0022
0000
0000
0000
0000
0033
0000
0000
0000
0000
1000
0000
0100
0000
0010
0000
,
0001
0100
0010
1000
,
1001
0000
0000
0000
0100
0010
0001
0010
,
0100
1000
0100
0010
1100
0010
0001
0100
,
1000
0100
0010
0100
1001
0100
0010
0100
,
0100
0010
0100
1000
0101
0010
0001
0010
,
0110
1000
1100
0010
1001
0010
0110
0001
,
0011
0100
1100
0010
0110
0100
0101
0010
,
1010
0100
0101
1000
1010
0100
0101
0010
,
0110
0100
1100
0001
0011
0100
0110
1000
,
1010
0001
0100
0010
0001
0010
0100
0010
1001
0010
0100
0010
0100
1000
0100
0010
,
1100
0010
0001
0100
0010
0001
0010
0100
1010
0001
0010
1000
0100
0010
0100
1000
,
0101
0010
0001
0010
0100
0010
0001
0010
0100
1000
0100
0010
1000
0100
0010
1000
,
0100
0001
0100
0010
1000
0001
0100
0010
0100
0010
1000
0001
0100
0010
1000
0001
,
1010
0100
0010
0001
1000
0001
0100
0001
1010
0001
0100
0010
1000
0010
0100
0010
,
1001
0100
0010
0100
0010
0001
1000
0100
0011
0100
0010
0001
1000
0100
0010
1000
,
0101
0010
0100
0010
0100
1000
0100
0010
0100
0010
0001
0100
0010
0100
0001
0100
,
0001
0100
0010
0100
0001
0100
0010
0100
0001
0100
0010
1000
0100
0010
1000
0010
,
0101
0010
1000
0100
1000
0100
0010
1000
0110
1000
0100
0001
0010
1000
0100
0010
,
0101
0010
0001
0010
0100
1000
0100
0010
1001
0100
0010
0100
0001
0100
1000
0001
,
0110
1000
0010
0001
0100
1000
0100
0010
1100
0010
0001
0100
1000
0100
0010
0100
,
1001
0100
0010
0001
0100
1000
0100
0010
1001
0010
0100
1000
0100
1000
0100
1000
,
0011
1000
0100
0010
0001
0010
0100
1000
0101
1000
0010
1000
0100
0010
1000
0001
,
1100
0010
1000
0001
1100
0010
1000
0001
0110
1000
0001
0100
1010
0001
0010
0001
,
0110
0001
1000
0100
1000
0100
0010
0100
1010
0001
1000
0100
0010
1000
0100
0001
,
1010
0100
0010
0100
0010
0001
0100
0010
1001
0100
1000
0100
0010
0100
0010
0001
,
1010
0001
0010
1000
0100
1000
0100
0001
0110
1000
0100
0001
1000
0100
0010
1000
,
0101
0010
0100
0010
0001
1000
0100
0010
1001
0000
0100
0000
0010
0000
0100
0000
,
0110
0000
1000
0100
1000
0100
1100
0000
,
1000
0100
0010
0001
1100
1100
1100
0100
,
0010
0100
1000
0100
0010
0001
0100
0100
,
0010
0100
1000
0100
0001
0000
0000
0000
,
2200
3300
0000
0000
0000
0000
0000
0000
,
0022
0033
0000
0000
0000
0000
0000
0000
,
2200
3300
0000
0000
0000
0000
0000
0000
,
0220
0000
0330
0000
1000
0100
0010
0001
1000
0100
0010
0001
1000
0100
0010
0001
,
2200
0000
0000
0000
,
3322
0000
0000
0000
,
2233
0000
0000
0000
,
0000
0000
0000
0000
0000
0000
0000
0000
0000
0000
0000
0000
3322
0000
0000
0033
,
1111
1000
0100
0001
0010
1000
0100
0010
0001
0010
0100
0001
0010
0100
1000
0100
,
0010
1000
0100
0001
0100
0010
0100
1000
0100
0010
0100
0001
0100
1000
0100
0010
,
0100
1000
0100
0001
0010
1000
0100
0010
0100
0001
0100
0010
1000
0100
1000
0100
,
0001
0010
0001
0100
0010
1000
0100
0010
0001
0100
0010
1000
0010
0001
0100
0010
,
1001
0100
0010
0001
0010
0100
1000
0100
0010
0100
0010
0100
0010
1000
0100
0010
,
1000
0001
0010
0100
0010
0001
0100
0010
1000
0100
0001
1000
0100
0010
0100
0010
,
1001
0100
0010
0100
0001
1000
0100
0010
1000
0001
0010
0100
0010
1000
0100
0010
,
0100
0011
0100
1000
0100
0010
0100
0010
0001
0100
1000
0100
0010
0100
0010
1000
,
0100
0010
0100
0000
1000
0100
0010
0000
,
0001
0000
0010
0000
0100
0000
0000
0000
1000
0000
0001
0000
1000
0100
1000
0100
,
0010
0100
0010
0000
0100
0010
0001
0000
,
0100
0000
1000
0000
0100
0000
0010
0000
0100
1000
0000
1000
0100
0010
0000
0010
,
0100
1000
0100
0010
0001
0010
0100
0010
0001
0010
0100
1000
0100
0010
0100
0010
,
0001
1000
0100
0010
0100
0010
0001
0100
1000
0100
0010
0100
0010
0001
0010
0100
,
1000
0100
0010
0100
0010
0001
1000
0100
0010
0100
0010
0001
1000
0100
0010
0100
,
0010
1000
0100
0010
0100
1000
0100
0001
0100
0010
0001
0010
0100
1000
0100
0010
,
0100
0010
0001
0010
0100
1000
0100
0010
0100
0010
0001
0100
0010
1000
0100
0010
,
0100
0010
0001
0100
1000
0100
0010
0100
0010
0001
0100
1000
0100
0010
0100
0010
,
0001
0100
0010
0100
1000
0100
0010
0100
0010
0001
0010
0100
0010
0001
0100
1000
,
0100
0010
0100
0001
0100
0010
1000
0001
0100
0010
1000
0001
0100
0010
1000
0001
,
2200
0000
0000
0000
,
0000
0000
0000
0000
0000
0000
0000
0000
0000
0000
0000
0000
0000
0000
0000
0000
0000
0000
0000
0000
0000
0000
0000
0000
0000
0000
0000
0000
0000
0000
0000
3300
,
2002
0000
0000
0000
,
0000
0000
0000
0000
0000
0000
0000
3003
;
